#TITLE:M.M.M.;
#SUBTITLE:(Mobo Moga Maniac);
#ARTIST:Orange Lounge;
#TITLETRANSLIT:;
#SUBTITLETRANSLIT:;
#ARTISTTRANSLIT:;
#CREDIT:;
#BANNER:;
#BACKGROUND:;
#LYRICSPATH:;
#CDTITLE:;
#MUSIC:Mobo Moga Maniac.mp3;
#MUSICLENGTH:79.464;
#OFFSET:-0.040;
#SAMPLESTART:32.025;
#SAMPLELENGTH:12.000;
#SELECTABLE:YES;
#BPMS:0.000=171.900,148.000=86.140,152.000=171.880,160.000=86.139,184.000=171.880;
#STOPS:;
#BGCHANGES:;
#FIRSTBEAT:4.000;

#LASTBEAT:192.000;

#SONGFILENAME:Songs/ERICth The 3rd/Mobo Moga Maniac/Mobo Moga Maniac.sm;

#HASMUSIC:1;

#HASBANNER:0;


//---------------dance-single - MANIAC----------------
#NOTES:
     dance-single:
     MANIAC:
     hard:
     8:
     0.523,0.862,0.126,0.050,0.214,277.000,10.000,4.000,0.000,0.000:  // measure 1
0000
0000
0000
0000
,  // measure 2
0100
0000
1000
0001
0010
0001
0000
0100
,  // measure 3
0000
0100
0001
1000
0000
0010
1000
0000
,  // measure 4
0010
0000
0100
0001
0100
1000
0000
0010
,  // measure 5
0000
0001
0001
0000
0001
0001
0000
0010
,  // measure 6
0100
1000
0100
1000
0000
1000
0100
0010
,  // measure 7
0100
1000
0000
1000
0001
0000
0000
0000
,  // measure 8
1100
0000
0101
0000
,  // measure 9
2200
0000
0000
3300
,  // measure 10
0100
0000
1000
0100
0000
0010
0001
0000
,  // measure 11
0001
0000
0001
0010
0000
0100
1000
0000
,  // measure 12
1000
0000
1000
0010
0000
0010
0100
0000
,  // measure 13
0100
0000
0100
0001
0000
0001
1000
0000
,  // measure 14
1000
0000
1000
0010
0000
0010
0100
0000
,  // measure 15
0100
0000
0100
0001
0000
0001
0100
0000
,  // measure 16
0100
0000
0100
0010
0000
0010
0100
0000
,  // measure 17
0100
0000
0100
0001
0000
0001
0010
0000
,  // measure 18
1000
0100
0010
0001
0000
0001
0010
0100
,  // measure 19
1000
0000
1000
0100
0010
0001
0000
0000
,  // measure 20
0001
0010
0100
1000
0000
1000
0100
0010
,  // measure 21
0001
0000
0001
0010
0100
1000
0000
0000
,  // measure 22
0001
0100
0010
1000
0000
1000
0010
0100
,  // measure 23
0001
0000
0001
0100
0010
1000
0000
0000
,  // measure 24
1010
0000
0101
0000
,  // measure 25
2020
0000
0000
3030
,  // measure 26
1000
0010
0001
0010
,  // measure 27
1000
0100
0001
0100
,  // measure 28
1000
0010
0100
0001
,  // measure 29
1000
0001
1000
0010
0100
0000
0110
0000
,  // measure 30
1000
0100
0010
0000
0100
0010
0001
0000
,  // measure 31
0010
0001
0010
0000
0001
0010
0100
0000
,  // measure 32
0010
0100
1000
0000
1000
0100
1000
0000
,  // measure 33
1000
0010
0100
0000
0010
0100
0001
0000
,  // measure 34
0001
0100
0001
0000
0001
0100
0010
0000
,  // measure 35
0100
0010
1000
0000
1000
0010
1000
0000
,  // measure 36
1000
0001
1000
0000
0001
0100
0001
0000
,  // measure 37
0001
1000
0001
0000
1000
0010
1000
0000
,  // measure 38
1000
0010
0000
0010
1000
0000
0000
1000
0100
0000
0100
0000
0001
0000
0000
0000
,  // measure 39
1000
0010
1000
0000
0010
0100
0010
0000
,  // measure 40
0001
1000
0001
0000
1000
0001
1000
0000
,  // measure 41
1000
0100
0000
0100
0010
0000
0000
0010
0001
0010
0001
0000
1000
0000
0000
0000
,  // measure 42
0100
0000
1000
0100
0010
0001
0010
0100
1000
0000
0000
1000
0000
0000
0000
0000
,  // measure 43
0010
1000
0010
1000
0010
0000
0100
0001
0100
0001
0100
0000
0001
1000
0001
1000
,  // measure 44
0001
0100
0001
0010
0001
0000
1000
0100
1000
0010
1000
0000
1000
0001
1000
0100
,  // measure 45
1000
0010
1000
0100
1000
0000
0100
0010
0100
0001
0100
0000
0100
0001
0010
0001
,  // measure 46
0010
0001
1000
0100
0010
0000
0010
0100
1000
0100
1000
0000
0010
0001
0010
0000
,  // measure 47
0011
0000
0101
0000
,  // measure 48
0000
1001
0000
0000
;

//---------------dance-single - ANOTHER----------------
#NOTES:
     dance-single:
     ANOTHER:
     medium:
     5:
     0.293,0.483,0.025,0.025,0.000,159.000,2.000,2.000,0.000,0.000:  // measure 1
0000
0000
0000
0000
,  // measure 2
0000
0000
0000
0000
,  // measure 3
1000
0000
0000
0000
,  // measure 4
0001
0000
0000
0000
,  // measure 5
1000
0000
0000
0000
,  // measure 6
0001
0000
1000
0100
0000
0010
0000
0001
,  // measure 7
1000
0000
0000
0100
0000
0000
0010
0000
,  // measure 8
0001
0000
1000
0000
,  // measure 9
0010
0000
0000
0000
,  // measure 10
0100
0000
1000
0010
0000
0000
0100
0000
,  // measure 11
0001
0000
1000
0100
0000
0000
0010
0000
,  // measure 12
0100
0000
1000
0001
0000
0000
0100
0000
,  // measure 13
0010
0000
0010
1000
0000
0000
0001
0000
,  // measure 14
0010
0000
0010
0001
0000
0000
1000
0000
,  // measure 15
0100
0000
0010
0100
0000
0000
1000
0000
,  // measure 16
0001
0000
0100
0010
0000
0000
0001
0000
,  // measure 17
1000
0000
0100
0001
0000
0000
0000
0000
,  // measure 18
0100
0000
0010
1000
0000
0000
0001
0000
,  // measure 19
0100
0000
0010
1000
0100
0001
0000
0000
,  // measure 20
0001
0000
1000
0100
0000
0000
0010
0000
,  // measure 21
1000
0000
0010
0001
0100
1000
0000
0000
,  // measure 22
0010
0000
0000
0100
0000
0000
1000
0000
,  // measure 23
0001
0000
0000
0010
0001
0100
0000
0000
,  // measure 24
1000
0000
0001
0000
,  // measure 25
1000
0000
0000
0000
,  // measure 26
1001
0000
0100
0000
,  // measure 27
0010
0000
0001
0000
,  // measure 28
1000
0000
0000
0000
,  // measure 29
0001
0000
1000
0001
1000
0000
0001
0000
,  // measure 30
0001
1000
0100
0010
,  // measure 31
0001
0000
1000
0010
,  // measure 32
0100
0001
1000
0100
,  // measure 33
0010
0000
0010
0000
,  // measure 34
1000
0010
0100
0001
,  // measure 35
1000
0100
0010
0001
,  // measure 36
1000
0000
0100
0000
,  // measure 37
0010
0000
1000
0000
,  // measure 38
1000
0100
1000
0000
0001
0010
0001
0000
,  // measure 39
1000
0000
0100
0000
,  // measure 40
0010
0001
1000
0000
,  // measure 41
0001
0100
0001
0000
1000
0010
1000
0000
,  // measure 42
0100
0100
0010
0000
0100
0100
0010
0000
,  // measure 43
0001
0000
1000
0000
0001
1000
0001
0000
,  // measure 44
0100
0000
0010
0000
0010
0010
1000
0000
,  // measure 45
0001
0001
1000
1000
0100
0100
0001
0001
,  // measure 46
0100
0100
1000
1000
0010
1000
0010
0000
,  // measure 47
1000
0000
0001
0000
,  // measure 48
0000
2002
0000
0000
,  // measure 49
3003
0000
0000
0000
;

//---------------dance-single - BASIC----------------
#NOTES:
     dance-single:
     BASIC:
     easy:
     3:
     0.253,0.272,0.000,0.038,0.000,138.000,0.000,3.000,0.000,0.000:  // measure 1
0000
0000
0000
0000
,  // measure 2
1000
0000
0001
0000
,  // measure 3
1000
0100
1000
0010
,  // measure 4
0001
0000
1000
0000
,  // measure 5
0100
1000
0010
0001
,  // measure 6
0100
0000
0010
0000
,  // measure 7
0001
1000
0100
1000
,  // measure 8
0001
0000
1000
0000
,  // measure 9
0002
0000
0000
0000
,  // measure 10
1003
0000
0010
0000
,  // measure 11
0100
0000
0001
1000
,  // measure 12
0100
0000
0010
0000
,  // measure 13
1000
0000
0010
1000
,  // measure 14
0001
0000
0100
0000
,  // measure 15
0001
0001
1000
1000
,  // measure 16
0001
0000
0010
0000
,  // measure 17
0100
0000
1000
0100
,  // measure 18
1000
0100
0001
0100
,  // measure 19
1000
0010
0001
0010
,  // measure 20
1000
0010
0100
0010
,  // measure 21
0100
0001
1000
0010
,  // measure 22
1000
0001
1000
0001
,  // measure 23
0100
0001
1000
0001
,  // measure 24
0010
0000
0010
0000
,  // measure 25
0020
0000
0000
0000
,  // measure 26
0130
0000
0010
0000
,  // measure 27
0010
0000
0001
0000
,  // measure 28
1000
0000
0001
0000
,  // measure 29
1000
0001
1000
0001
,  // measure 30
1000
0000
0100
0000
,  // measure 31
0010
1000
0001
0000
,  // measure 32
0100
1000
0001
0000
,  // measure 33
0010
1000
0001
0000
,  // measure 34
0100
1000
0001
0000
,  // measure 35
0010
0010
0001
0000
,  // measure 36
1000
1000
0100
0000
,  // measure 37
0010
0100
1000
0000
,  // measure 38
0001
1000
0001
0001
,  // measure 39
0100
0000
0100
0000
,  // measure 40
0010
1000
0100
0000
,  // measure 41
1000
0010
0100
0100
,  // measure 42
0001
1000
0100
0100
,  // measure 43
0001
1000
0100
0100
,  // measure 44
0001
1000
0100
0100
,  // measure 45
0001
1000
0100
0100
,  // measure 46
0001
1000
0100
0100
,  // measure 47
0010
0000
0010
0000
,  // measure 48
0000
0020
0000
0000
,  // measure 49
0030
0000
0000
0000
;
